<?xml version="1.0" standalone="no"?>
<!DOCTYPE svg PUBLIC "-//W3C//DTD SVG 1.1//EN" "http://www.w3.org/Graphics/SVG/1.1/DTD/svg11.dtd">
<svg xmlns="http://www.w3.org/2000/svg">
<defs >
<font id="OpenSans" horiz-adv-x="1169" ><font-face
    font-family="Open Sans"
    units-per-em="2048"
    panose-1="0 0 0 0 0 0 0 0 0 0"
    ascent="2189"
    descent="-600"
    alphabetic="0" />
<glyph unicode=" " glyph-name="space" horiz-adv-x="532" />
<glyph unicode="!" glyph-name="exclam" horiz-adv-x="541" d="M325 406H216L170 1462H371L325 406ZM150 104Q150 174 184 203T269 233Q319 233 353 204T388 104Q388 35 354 4T269 -28Q218 -28 184 3T150 104Z" />
<glyph unicode="&quot;" glyph-name="quotedbl" horiz-adv-x="816" d="M315 1462L277 934H172L135 1462H315ZM681 1462L644 934H539L502 1462H681Z" />
<glyph unicode="#" glyph-name="numbersign" horiz-adv-x="1323" d="M980 899L915 559H1198V432H890L805 0H670L755 432H450L368 0H235L314 432H52V559H339L406 899H128V1024H429L512 1462H649L566 1024H873L956 1462H1088L1005 1024H1270V899H980ZM474 559H779L845
899H540L474 559Z" />
<glyph unicode="$" glyph-name="dollar" horiz-adv-x="1171" d="M518 -119V91Q403 93 299 111T128 158V320Q197 288 305 264T518 238V678Q386 715 300 762T170 879T127 1046Q127 1148 175 1220T312 1334T518 1381V1554H640V1383Q747 1380 835 1360T998 1307L946
1168Q878 1195 799 1214T640 1240V803Q774 764 864 720T1001 611T1047 443Q1047 297 940 208T640 99V-119H518ZM640 247Q763 259 823 306T884 432Q884 488 861 524T784 586T640 637V247ZM518 845V1236Q443 1231 392 1208T316 1148T290 1060Q290 1001 312 962T385
895T518 845Z" />
<glyph unicode="%" glyph-name="percent" horiz-adv-x="1693" d="M399 1483Q549 1483 626 1364T704 1026Q704 808 629 687T399 565Q255 565 179 686T102 1026Q102 1244 175 1363T399 1483ZM399 1364Q318 1364 280 1280T242 1026Q242 857 280 771T399 685Q483 685
524 771T565 1026Q565 1194 525 1279T399 1364ZM1325 1462L514 0H368L1179 1462H1325ZM1286 897Q1435 897 1513 778T1591 440Q1591 223 1516 102T1286 -20Q1141 -20 1065 101T989 440Q989 658 1061 777T1286 897ZM1286 777Q1205 777 1167 693T1129 440Q1129 271
1167 186T1286 100Q1370 100 1411 184T1452 440Q1452 608 1412 692T1286 777Z" />
<glyph unicode="&amp;" glyph-name="ampersand" horiz-adv-x="1492" d="M623 1485Q731 1485 809 1448T930 1340T973 1171Q973 1041 889 951T674 787L1080 393Q1135 457 1170 541T1229 725H1397Q1365 593 1315 482T1188 287L1481 0H1256L1075 177Q1011 118 938
74T775 5T570 -20Q430 -20 327 26T168 161T111 379Q111 485 150 561T261 696T433 811Q386 863 344 916T276 1031T250 1167Q250 1267 295 1338T424 1447T623 1485ZM533 706Q455 661 400 617T315 518T285 385Q285 268 364 198T575 127Q711 127 806 172T969 281L533
706ZM617 1348Q526 1348 470 1301T413 1168Q413 1092 454 1028T571 886Q696 955 752 1019T809 1171Q809 1250 757 1299T617 1348Z" />
<glyph unicode="&apos;" glyph-name="quotesingle" horiz-adv-x="449" d="M315 1462L277 934H172L135 1462H315Z" />
<glyph unicode="(" glyph-name="parenleft" horiz-adv-x="604" d="M82 561Q82 730 114 890T214 1195T383 1462H542Q397 1272 324 1040T251 563Q251 403 283 248T380 -52T540 -324H383Q281 -204 214 -63T115 237T82 561Z" />
<glyph unicode=")" glyph-name="parenright" horiz-adv-x="604" d="M522 563Q522 396 490 238T391 -63T221 -324H64Q160 -197 224 -52T321 248T354 564Q354 727 321 885T224 1189T62 1462H221Q324 1339 390 1195T489 891T522 563Z" />
<glyph unicode="*" glyph-name="asterisk" horiz-adv-x="1128" d="M651 1556L613 1159L1008 1274L1034 1099L656 1060L900 735L738 646L557 1002L391 646L223 735L465 1060L89 1099L117 1274L506 1159L467 1556H651Z" />
<glyph unicode="+" glyph-name="plus" horiz-adv-x="1171" d="M652 790H1064V654H652V230H515V654H103V790H515V1216H652V790Z" />
<glyph unicode="," glyph-name="comma" horiz-adv-x="530" d="M365 238L378 215Q360 142 333 59T273 -107T207 -264H83Q104 -184 124 -96T160 79T187 238H365Z" />
<glyph unicode="-" glyph-name="hyphen" horiz-adv-x="659" d="M82 476V624H578V476H82Z" />
<glyph unicode="." glyph-name="period" horiz-adv-x="538" d="M150 104Q150 174 184 203T267 233Q318 233 353 204T388 104Q388 35 353 4T267 -28Q218 -28 184 3T150 104Z" />
<glyph unicode="/" glyph-name="slash" horiz-adv-x="751" d="M729 1462L185 0H21L566 1462H729Z" />
<glyph unicode="0" glyph-name="zero" horiz-adv-x="1171" d="M1067 733Q1067 555 1040 415T955 178T805 31T584 -20Q421 -20 315 69T156 326T103 733Q103 967 150 1135T304 1394T584 1485Q749 1485 856 1396T1015 1138T1067 733ZM270 733Q270 529 301 393T401
190T584 122Q697 122 766 189T867 392T899 733Q899 934 868 1069T768 1273T584 1342Q469 1342 400 1274T301 1070T270 733Z" />
<glyph unicode="1" glyph-name="one" horiz-adv-x="1171" d="M719 0H557V1036Q557 1095 557 1137T559 1215T564 1288Q533 1256 506 1234T439 1178L272 1044L185 1157L581 1462H719V0Z" />
<glyph unicode="2" glyph-name="two" horiz-adv-x="1171" d="M1059 0H101V139L492 536Q601 646 675 732T789 901T828 1085Q828 1209 755 1274T561 1340Q456 1340 375 1304T209 1202L120 1314Q178 1363 246 1401T393 1461T561 1483Q696 1483 794 1436T945 1302T999
1095Q999 979 953 880T824 683T630 476L312 159V152H1059V0Z" />
<glyph unicode="3" glyph-name="three" horiz-adv-x="1171" d="M1005 1121Q1005 1023 967 951T861 834T701 770V762Q875 740 962 650T1050 414Q1050 287 991 189T809 36T495 -20Q379 -20 281 -2T92 60V216Q183 171 290 146T497 120Q697 120 786 199T875 417Q875
512 826 570T684 656T461 684H315V826H462Q581 826 664 861T790 959T834 1110Q834 1221 760 1281T559 1342Q481 1342 417 1326T297 1282T185 1217L101 1331Q181 1393 296 1438T557 1483Q781 1483 893 1381T1005 1121Z" />
<glyph unicode="4" glyph-name="four" horiz-adv-x="1171" d="M1132 339H913V0H751V339H44V479L740 1470H913V489H1132V339ZM751 489V967Q751 1022 752 1066T755 1149T758 1223T761 1292H753Q734 1252 710 1208T660 1128L209 489H751Z" />
<glyph unicode="5" glyph-name="five" horiz-adv-x="1171" d="M563 894Q712 894 822 844T992 697T1053 464Q1053 314 988 206T801 39T509 -20Q395 -20 297 0T132 60V218Q205 174 309 148T511 122Q622 122 705 157T835 265T882 448Q882 594 793 673T510 753Q448
753 374 743T252 721L168 776L224 1462H951V1310H366L329 869Q367 877 427 885T563 894Z" />
<glyph unicode="6" glyph-name="six" horiz-adv-x="1171" d="M116 625Q116 757 134 883T197 1117T317 1308T506 1436T779 1483Q824 1483 876 1479T962 1464V1321Q925 1334 878 1340T782 1346Q596 1346 490 1265T336 1046T282 734H293Q324 784 372 824T488 889T648
913Q776 913 871 861T1019 710T1072 470Q1072 319 1016 209T857 40T610 -20Q503 -20 413 21T257 143T153 344T116 625ZM608 120Q744 120 826 207T908 470Q908 614 835 698T615 782Q515 782 441 741T326 636T285 508Q285 442 304 374T364 248T465 155T608 120Z"
/>
<glyph unicode="7" glyph-name="seven" horiz-adv-x="1171" d="M290 0L890 1310H93V1462H1068V1334L472 0H290Z" />
<glyph unicode="8" glyph-name="eight" horiz-adv-x="1171" d="M584 1483Q711 1483 809 1443T962 1326T1018 1135Q1018 1046 980 980T876 864T732 775Q826 732 901 678T1021 551T1065 378Q1065 255 1006 166T839 28T588 -20Q433 -20 325 26T160 160T103 371Q103
472 146 546T260 675T415 766Q342 806 282 857T186 976T150 1136Q150 1247 206 1324T361 1442T584 1483ZM266 370Q266 258 345 186T584 113Q736 113 819 185T902 376Q902 449 864 504T756 604T591 684L555 697Q463 659 399 613T300 507T266 370ZM582 1347Q464 1347
389 1291T314 1128Q314 1052 350 1000T450 910T591 840Q667 872 726 910T819 1002T853 1129Q853 1235 779 1291T582 1347Z" />
<glyph unicode="9" glyph-name="nine" horiz-adv-x="1171" d="M1061 839Q1061 706 1043 580T980 345T859 154T669 26T395 -21Q352 -21 297 -16T207 0V144Q244 131 294 124T392 116Q579 116 686 196T840 415T893 727H881Q851 679 803 639T685 574T524 549Q397 549
303 601T156 752T103 991Q103 1142 160 1252T322 1423T567 1483Q675 1483 765 1442T921 1320T1024 1118T1061 839ZM567 1342Q434 1342 352 1255T269 993Q269 848 340 764T559 680Q661 680 735 721T850 825T891 954Q891 1020 872 1088T812 1213T711 1306T567 1342Z"
/>
<glyph unicode=":" glyph-name="colon" horiz-adv-x="538" d="M150 104Q150 174 184 203T267 233Q318 233 353 204T388 104Q388 35 353 4T267 -28Q218 -28 184 3T150 104ZM150 991Q150 1063 184 1092T267 1122Q318 1122 353 1093T388 991Q388 923 353 892T267
861Q218 861 184 892T150 991Z" />
<glyph unicode=";" glyph-name="semicolon" horiz-adv-x="538" d="M348 238L362 215Q344 143 316 60T256 -107T191 -264H65Q86 -185 106 -97T143 79T171 238H348ZM146 991Q146 1063 180 1092T263 1122Q316 1122 350 1093T384 991Q384 923 350 892T263 861Q214
861 180 892T146 991Z" />
<glyph unicode="&lt;" glyph-name="less" horiz-adv-x="1171" d="M1065 243L103 669V764L1065 1240V1092L283 723L1065 390V243Z" />
<glyph unicode="=" glyph-name="equal" horiz-adv-x="1171" d="M115 858V993H1053V858H115ZM115 449V584H1053V449H115Z" />
<glyph unicode="&gt;" glyph-name="greater" horiz-adv-x="1171" d="M103 390L886 721L103 1092V1240L1065 764V669L103 243V390Z" />
<glyph unicode="?" glyph-name="question" horiz-adv-x="884" d="M288 406V458Q288 538 303 595T355 703T460 809Q538 874 583 919T649 1011T669 1122Q669 1226 602 1281T413 1337Q314 1337 237 1312T89 1252L31 1386Q113 1429 209 1456T423 1483Q616 1483 722
1388T828 1125Q828 1032 798 967T713 847T583 731Q517 675 482 633T434 546T421 439V406H288ZM244 104Q244 174 277 203T362 233Q411 233 445 204T480 104Q480 35 446 4T362 -28Q310 -28 277 3T244 104Z" />
<glyph unicode="@" glyph-name="at" horiz-adv-x="1836" d="M1719 730Q1719 635 1698 545T1632 382T1523 266T1368 223Q1275 223 1220 277T1154 405H1145Q1107 326 1034 275T853 223Q697 223 613 326T528 602Q528 736 581 839T732 1002T963 1062Q1052 1062 1136
1047T1270 1014L1250 611Q1249 574 1248 555T1247 524Q1247 416 1285 379T1379 341Q1446 341 1491 393T1561 534T1585 731Q1585 922 1508 1057T1296 1263T984 1334Q809 1334 674 1279T445 1124T303 885T255 580Q255 376 327 233T540 16T883 -59Q1005 -59 1118 -32T1320
29V-101Q1232 -138 1123 -161T883 -185Q642 -185 471 -95T209 166T118 574Q118 767 177 929T349 1210T622 1394T984 1460Q1199 1460 1364 1372T1624 1120T1719 730ZM677 598Q677 465 730 403T877 341Q993 341 1047 428T1110 658L1122 919Q1093 928 1052 934T965
941Q862 941 799 892T706 765T677 598Z" />
<glyph unicode="A" glyph-name="A" horiz-adv-x="1295" d="M1117 0L937 464H351L172 0H0L572 1468H725L1293 0H1117ZM886 615L715 1076Q709 1094 696 1135T668 1220T645 1291Q635 1250 624 1210T601 1135T582 1076L408 615H886Z" />
<glyph unicode="B" glyph-name="B" horiz-adv-x="1323" d="M200 1462H614Q888 1462 1026 1380T1164 1101Q1164 1016 1132 949T1037 837T884 776V766Q980 751 1054 711T1170 599T1212 416Q1212 281 1150 188T973 48T703 0H200V1462ZM370 835H650Q841 835 914 898T988
1082Q988 1207 901 1262T622 1317H370V835ZM370 692V145H674Q869 145 950 221T1031 428Q1031 511 995 570T877 660T659 692H370Z" />
<glyph unicode="C" glyph-name="C" horiz-adv-x="1290" d="M825 1333Q704 1333 608 1292T444 1172T340 982T304 732Q304 548 361 413T533 203T820 129Q918 129 1004 145T1173 187V39Q1093 9 1005 -5T796 -20Q573 -20 424 72T200 334T125 733Q125 899 171 1036T307
1274T527 1428T827 1483Q938 1483 1041 1461T1227 1398L1159 1254Q1089 1286 1006 1309T825 1333Z" />
<glyph unicode="D" glyph-name="D" horiz-adv-x="1486" d="M1361 745Q1361 498 1271 333T1011 84T597 0H200V1462H641Q864 1462 1025 1381T1273 1140T1361 745ZM1182 739Q1182 936 1117 1064T925 1254T615 1317H370V146H577Q879 146 1030 295T1182 739Z" />
<glyph unicode="E" glyph-name="E" horiz-adv-x="1138" d="M1014 0H200V1462H1014V1312H370V839H977V691H370V150H1014V0Z" />
<glyph unicode="F" glyph-name="F" horiz-adv-x="1057" d="M370 0H200V1462H1014V1312H370V776H975V627H370V0Z" />
<glyph unicode="G" glyph-name="G" horiz-adv-x="1489" d="M825 766H1336V57Q1221 18 1100 -1T828 -20Q600 -20 444 71T206 330T125 731Q125 958 214 1127T473 1389T881 1483Q1003 1483 1112 1461T1316 1397L1251 1249Q1170 1284 1073 1309T871 1334Q692 1334
565 1260T370 1051T302 731Q302 548 361 413T545 202T867 127Q966 127 1037 138T1166 166V614H825V766Z" />
<glyph unicode="H" glyph-name="H" horiz-adv-x="1510" d="M1308 0H1138V689H370V0H200V1462H370V839H1138V1462H1308V0Z" />
<glyph unicode="I" glyph-name="I" horiz-adv-x="572" d="M200 0V1462H370V0H200Z" />
<glyph unicode="J" glyph-name="J" horiz-adv-x="550" d="M-11 -385Q-61 -385 -99 -378T-164 -359V-214Q-132 -224 -95 -229T-15 -235Q41 -235 88 -213T163 -138T191 8V1462H362V21Q362 -116 317 -206T188 -340T-11 -385Z" />
<glyph unicode="K" glyph-name="K" horiz-adv-x="1254" d="M1254 0H1053L526 711L370 571V0H200V1462H370V733Q427 798 487 862T606 993L1033 1462H1232L650 828L1254 0Z" />
<glyph unicode="L" glyph-name="L" horiz-adv-x="1069" d="M200 0V1462H370V152H1019V0H200Z" />
<glyph unicode="M" glyph-name="M" horiz-adv-x="1842" d="M843 0L352 1294H344Q348 1253 351 1194T356 1066T358 924V0H200V1462H452L915 246H922L1392 1462H1642V0H1474V936Q1474 1001 1476 1066T1481 1190T1487 1292H1479L982 0H843Z" />
<glyph unicode="N" glyph-name="N" horiz-adv-x="1542" d="M1343 0H1147L350 1228H342Q345 1179 349 1117T355 984T358 840V0H200V1462H395L1189 238H1196Q1194 273 1191 337T1186 476T1183 615V1462H1343V0Z" />
<glyph unicode="O" glyph-name="O" horiz-adv-x="1593" d="M1468 733Q1468 564 1425 426T1298 188T1088 34T798 -20Q628 -20 502 34T292 188T167 427T125 735Q125 959 199 1128T423 1391T801 1485Q1018 1485 1166 1392T1391 1131T1468 733ZM304 733Q304 547 357
411T519 201T798 127Q968 127 1076 201T1237 411T1289 733Q1289 1016 1171 1175T801 1335Q631 1335 521 1262T358 1055T304 733Z" />
<glyph unicode="P" glyph-name="P" horiz-adv-x="1232" d="M582 1462Q865 1462 995 1352T1126 1035Q1126 942 1096 859T997 712T819 612T548 575H370V0H200V1462H582ZM566 1317H370V721H529Q669 721 762 751T903 848T950 1028Q950 1174 857 1245T566 1317Z" />
<glyph unicode="Q" glyph-name="Q" horiz-adv-x="1593" d="M1468 733Q1468 553 1419 407T1274 160T1033 13L1377 -348H1134L851 -18Q838 -18 825 -19T798 -20Q628 -20 502 34T292 188T167 427T125 735Q125 959 199 1128T423 1391T801 1485Q1018 1485 1166 1392T1391
1131T1468 733ZM304 733Q304 547 357 411T519 201T798 127Q968 127 1076 201T1237 411T1289 733Q1289 1016 1171 1175T801 1335Q631 1335 521 1262T358 1055T304 733Z" />
<glyph unicode="R" glyph-name="R" horiz-adv-x="1264" d="M595 1462Q775 1462 892 1418T1068 1282T1126 1050Q1126 934 1084 857T974 731T829 657L1230 0H1032L674 610H370V0H200V1462H595ZM585 1315H370V754H602Q781 754 865 827T950 1042Q950 1191 861 1253T585 1315Z" />
<glyph unicode="S" glyph-name="S" horiz-adv-x="1123" d="M1025 389Q1025 259 961 168T780 28T507 -20Q424 -20 350 -12T214 11T105 48V211Q180 180 288 154T514 127Q624 127 700 156T815 241T855 375Q855 450 822 500T713 592T504 681Q411 714 340 753T221 843T149
959T124 1110Q124 1227 183 1310T348 1438T591 1483Q708 1483 807 1461T990 1402L937 1256Q858 1289 770 1311T587 1333Q493 1333 429 1306T330 1228T296 1109Q296 1032 328 981T432 891T622 808Q751 761 841 709T978 581T1025 389Z" />
<glyph unicode="T" glyph-name="T" horiz-adv-x="1128" d="M649 0H478V1312H18V1462H1107V1312H649V0Z" />
<glyph unicode="U" glyph-name="U" horiz-adv-x="1493" d="M1306 1462V516Q1306 361 1244 240T1055 50T739 -20Q468 -20 327 127T185 520V1462H356V515Q356 329 454 228T749 127Q883 127 968 175T1095 311T1137 514V1462H1306Z" />
<glyph unicode="V" glyph-name="V" horiz-adv-x="1221" d="M1221 1462L696 0H525L0 1462H178L520 499Q541 441 557 388T587 286T610 191Q620 237 633 286T663 389T701 502L1041 1462H1221Z" />
<glyph unicode="W" glyph-name="W" horiz-adv-x="1891" d="M1861 1462L1470 0H1299L1009 984Q996 1026 985 1068T963 1149T947 1217T937 1262Q935 1247 930 1218T916 1151T896 1070T871 983L589 0H418L30 1462H207L442 545Q454 499 464 455T483 368T499 286T512
208Q517 247 525 289T542 376T563 465T588 555L851 1462H1026L1300 548Q1314 501 1326 455T1347 366T1364 283T1378 208Q1385 257 1395 311T1418 424T1448 546L1683 1462H1861Z" />
<glyph unicode="X" glyph-name="X" horiz-adv-x="1183" d="M1176 0H983L588 644L187 0H6L493 762L40 1462H229L594 879L961 1462H1141L689 765L1176 0Z" />
<glyph unicode="Y" glyph-name="Y" horiz-adv-x="1145" d="M573 729L962 1462H1145L658 567V0H488V559L0 1462H186L573 729Z" />
<glyph unicode="Z" glyph-name="Z" horiz-adv-x="1172" d="M1093 0H78V128L865 1310H105V1462H1072V1334L284 152H1093V0Z" />
<glyph unicode="[" glyph-name="bracketleft" horiz-adv-x="670" d="M619 -324H166V1462H619V1326H328V-186H619V-324Z" />
<glyph unicode="\" glyph-name="backslash" horiz-adv-x="751" d="M185 1462L731 0H566L21 1462H185Z" />
<glyph unicode="]" glyph-name="bracketright" horiz-adv-x="670" d="M51 -186H342V1326H51V1462H505V-324H51V-186Z" />
<glyph unicode="^" glyph-name="asciicircum" horiz-adv-x="1171" d="M80 549L519 1473H615L1092 549H943L569 1295L229 549H80Z" />
<glyph unicode="_" glyph-name="underscore" horiz-adv-x="897" d="M901 -307H-4V-184H901V-307Z" />
<glyph unicode="`" glyph-name="grave" horiz-adv-x="568" d="M280 1569Q304 1523 339 1467T414 1357T487 1265V1241H374Q338 1270 296 1310T211 1394T135 1479T82 1549V1569H280Z" />
<glyph unicode="a" glyph-name="a" horiz-adv-x="1138" d="M585 1114Q781 1114 876 1026T971 745V0H850L818 162H810Q764 102 714 62T599 1T438 -20Q338 -20 261 15T139 121T94 301Q94 465 224 553T620 649L809 657V724Q809 866 748 923T576 980Q490 980 412 955T264
896L213 1022Q287 1060 383 1087T585 1114ZM807 540L640 533Q435 525 351 466T267 299Q267 205 324 160T475 115Q621 115 714 196T807 439V540Z" />
<glyph unicode="b" glyph-name="b" horiz-adv-x="1253" d="M341 1556V1167Q341 1100 338 1037T332 939H341Q386 1013 471 1064T688 1115Q894 1115 1016 973T1139 549Q1139 364 1083 237T925 45T684 -20Q554 -20 471 28T342 147H329L295 0H175V1556H341ZM661 976Q542
976 472 930T372 790T341 553V544Q341 337 410 228T661 118Q814 118 890 230T967 550Q967 762 892 869T661 976Z" />
<glyph unicode="c" glyph-name="c" horiz-adv-x="981" d="M614 -20Q466 -20 353 41T177 227T114 542Q114 741 180 867T364 1055T630 1116Q712 1116 788 1100T914 1058L864 919Q814 939 749 955T626 971Q512 971 437 922T324 778T286 544Q286 411 322 317T431 174T613
124Q700 124 770 142T897 186V38Q842 10 775 -5T614 -20Z" />
<glyph unicode="d" glyph-name="d" horiz-adv-x="1253" d="M565 -20Q357 -20 236 122T114 544Q114 827 238 971T568 1116Q655 1116 720 1093T832 1032T911 944H923Q919 975 915 1029T911 1117V1556H1077V0H943L918 156H911Q880 107 833 67T720 4T565 -20ZM591
118Q767 118 840 218T913 515V545Q913 754 844 866T591 978Q438 978 362 861T286 540Q286 338 361 228T591 118Z" />
<glyph unicode="e" glyph-name="e" horiz-adv-x="1150" d="M597 1116Q737 1116 837 1054T990 881T1043 620V517H286Q289 324 382 223T644 122Q748 122 828 141T994 197V51Q911 14 830 -3T637 -20Q479 -20 362 44T179 234T114 540Q114 717 173 846T341 1046T597
1116ZM595 980Q462 980 383 893T289 650H869Q868 748 839 822T749 938T595 980Z" />
<glyph unicode="f" glyph-name="f" horiz-adv-x="689" d="M663 966H390V0H224V966H30V1046L224 1101V1174Q224 1312 265 1398T384 1526T574 1567Q637 1567 689 1556T782 1531L739 1400Q705 1411 663 1420T576 1430Q481 1430 436 1369T390 1176V1096H663V966Z" />
<glyph unicode="g" glyph-name="g" horiz-adv-x="1112" d="M481 -492Q265 -492 148 -412T31 -186Q31 -83 96 -10T278 87Q235 107 205 147T174 239Q174 299 207 344T310 432Q224 467 171 550T117 745Q117 863 166 946T308 1074T533 1118Q562 1118 591 1116T648
1109T695 1098H1071V991L869 966Q899 927 919 872T939 750Q939 586 828 490T523 393Q477 393 429 401Q380 374 355 341T329 265Q329 233 348 214T405 187T494 178H687Q866 178 961 103T1057 -116Q1057 -298 909 -395T481 -492ZM486 -362Q622 -362 711 -335T845
-256T890 -133Q890 -67 860 -34T772 11T630 23H440Q366 23 311 0T227 -68T197 -180Q197 -269 272 -315T486 -362ZM529 514Q648 514 708 574T768 749Q768 872 707 933T527 995Q413 995 352 932T290 746Q290 634 352 574T529 514Z" />
<glyph unicode="h" glyph-name="h" horiz-adv-x="1256" d="M341 1556V1091Q341 1051 339 1011T332 936H343Q377 994 429 1033T549 1093T691 1114Q823 1114 911 1072T1044 942T1089 714V0H925V703Q925 840 863 908T671 976Q549 976 477 930T373 793T341 573V0H175V1556H341Z"
/>
<glyph unicode="i" glyph-name="i" horiz-adv-x="517" d="M341 1096V0H175V1096H341ZM260 1506Q301 1506 330 1480T360 1397Q360 1342 331 1315T260 1288Q217 1288 189 1315T160 1397Q160 1453 188 1479T260 1506Z" />
<glyph unicode="j" glyph-name="j" horiz-adv-x="517" d="M43 -492Q-8 -492 -46 -485T-112 -467V-332Q-81 -342 -49 -347T23 -353Q91 -353 133 -315T175 -177V1096H341V-173Q341 -273 309 -344T211 -454T43 -492ZM160 1397Q160 1453 188 1479T260 1506Q301 1506
330 1480T360 1397Q360 1342 331 1315T260 1288Q217 1288 189 1315T160 1397Z" />
<glyph unicode="k" glyph-name="k" horiz-adv-x="1076" d="M340 1556V748Q340 708 337 651T332 549H339Q360 575 400 626T469 708L833 1096H1028L587 628L1060 0H860L473 519L340 397V0H175V1556H340Z" />
<glyph unicode="l" glyph-name="l" horiz-adv-x="517" d="M342 0H175V1556H342V0Z" />
<glyph unicode="m" glyph-name="m" horiz-adv-x="1896" d="M1365 1116Q1546 1116 1638 1022T1730 718V0H1566V710Q1566 843 1509 909T1338 976Q1179 976 1107 884T1035 613V0H870V710Q870 799 845 858T769 946T641 976Q532 976 466 931T371 798T341 580V0H175V1096H309L334
941H343Q376 998 426 1037T538 1096T670 1116Q795 1116 879 1070T1002 928H1011Q1065 1023 1159 1069T1365 1116Z" />
<glyph unicode="n" glyph-name="n" horiz-adv-x="1256" d="M694 1116Q889 1116 989 1021T1089 714V0H925V703Q925 840 863 908T671 976Q489 976 415 873T341 574V0H175V1096H309L334 938H343Q378 996 432 1035T553 1095T694 1116Z" />
<glyph unicode="o" glyph-name="o" horiz-adv-x="1232" d="M1120 550Q1120 415 1085 309T984 130T825 19T613 -20Q503 -20 412 18T254 130T151 309T114 550Q114 730 175 856T349 1049T620 1116Q770 1116 882 1049T1057 856T1120 550ZM286 550Q286 418 321 321T429
171T617 118Q731 118 804 171T913 321T948 550Q948 681 913 776T805 924T616 976Q445 976 366 863T286 550Z" />
<glyph unicode="p" glyph-name="p" horiz-adv-x="1253" d="M690 1116Q895 1116 1017 975T1139 551Q1139 364 1083 237T926 45T686 -20Q599 -20 533 3T420 65T342 150H330Q333 111 337 56T342 -40V-490H175V1096H312L334 934H342Q374 984 420 1025T532 1091T690
1116ZM661 976Q547 976 478 932T376 801T342 581V549Q342 410 372 314T473 168T663 118Q765 118 833 173T934 326T968 553Q968 747 893 861T661 976Z" />
<glyph unicode="q" glyph-name="q" horiz-adv-x="1253" d="M910 -490V-20Q910 19 912 70T919 158H908Q862 82 777 31T558 -20Q357 -20 235 122T113 546Q113 731 169 858T327 1050T567 1116Q698 1116 781 1065T911 939H919L944 1096H1076V-490H910ZM589 118Q705
118 775 161T877 293T912 512V547Q912 759 840 868T589 978Q435 978 360 861T285 542Q285 341 360 230T589 118Z" />
<glyph unicode="r" glyph-name="r" horiz-adv-x="837" d="M673 1116Q706 1116 742 1113T806 1103L785 949Q758 956 725 960T663 964Q597 964 539 938T436 862T367 743T342 588V0H175V1096H313L331 894H338Q372 955 420 1005T531 1086T673 1116Z" />
<glyph unicode="s" glyph-name="s" horiz-adv-x="976" d="M884 300Q884 195 832 124T682 16T449 -20Q334 -20 250 -2T103 49V202Q170 169 263 142T453 115Q595 115 659 161T723 286Q723 331 698 365T612 432T446 504Q341 544 265 583T147 680T105 828Q105 967
217 1041T513 1116Q612 1116 698 1097T860 1044L804 911Q736 940 659 960T502 980Q387 980 326 942T264 838Q264 787 292 754T384 692T550 624Q653 586 728 546T843 448T884 300Z" />
<glyph unicode="t" glyph-name="t" horiz-adv-x="730" d="M529 116Q570 116 613 123T683 140V11Q654 -2 603 -11T502 -20Q415 -20 344 10T231 114T188 316V966H32V1047L189 1112L255 1350H355V1096H676V966H355V321Q355 218 402 167T529 116Z" />
<glyph unicode="u" glyph-name="u" horiz-adv-x="1256" d="M1080 1096V0H944L920 154H911Q877 97 823 58T702 0T558 -20Q428 -20 340 22T208 152T163 378V1096H331V390Q331 253 393 186T582 118Q704 118 776 164T881 299T913 519V1096H1080Z" />
<glyph unicode="v" glyph-name="v" horiz-adv-x="1023" d="M416 0L0 1096H178L419 433Q444 365 470 283T506 151H513Q525 201 553 283T604 433L845 1096H1023L606 0H416Z" />
<glyph unicode="w" glyph-name="w" horiz-adv-x="1587" d="M1067 2L872 640Q859 681 848 720T827 796T810 864T797 919H790Q786 896 779 865T763 796T742 719T717 637L513 2H326L24 1098H196L354 493Q370 433 384 375T409 265T425 175H433Q439 200 446 235T463
309T484 388T506 463L708 1098H887L1082 464Q1097 416 1111 364T1138 264T1155 177H1163Q1167 211 1178 261T1203 371T1234 493L1394 1098H1563L1260 2H1067Z" />
<glyph unicode="x" glyph-name="x" horiz-adv-x="1072" d="M436 561L57 1096H247L536 674L824 1096H1012L633 561L1033 0H843L536 447L227 0H39L436 561Z" />
<glyph unicode="y" glyph-name="y" horiz-adv-x="1026" d="M2 1096H180L422 460Q443 404 461 353T493 254T515 163H522Q536 213 562 294T618 461L847 1096H1026L549 -161Q511 -262 461 -337T338 -452T164 -493Q117 -493 81 -488T19 -475V-342Q41 -347 72 -351T138
-355Q200 -355 245 -332T324 -263T381 -156L441 -2L2 1096Z" />
<glyph unicode="z" glyph-name="z" horiz-adv-x="960" d="M879 0H80V110L681 966H118V1096H866V973L273 129H879V0Z" />
<glyph unicode="{" glyph-name="braceleft" horiz-adv-x="768" d="M702 -324Q578 -323 489 -288T352 -181T304 -3V303Q304 374 276 417T193 481T57 501V639Q138 640 193 659T276 722T304 836V1144Q304 1251 354 1321T493 1427T702 1462V1326Q628 1324 576 1303T496
1239T468 1128V827Q468 723 415 660T252 577V565Q364 546 416 483T468 315V8Q468 -60 495 -102T574 -165T702 -186V-324Z" />
<glyph unicode="|" glyph-name="bar" horiz-adv-x="1125" d="M492 1557H631V-496H492V1557Z" />
<glyph unicode="}" glyph-name="braceright" horiz-adv-x="768" d="M67 -324V-186Q141 -184 193 -164T272 -101T300 10V313Q300 418 353 481T516 563V575Q405 595 353 658T300 825V1129Q300 1198 273 1241T194 1304T67 1326V1462Q191 1461 280 1426T416 1321T464
1142V838Q464 766 492 723T575 659T712 639V501Q631 501 576 481T492 418T464 305V-5Q464 -111 414 -182T275 -288T67 -324Z" />
<glyph unicode="~" glyph-name="asciitilde" horiz-adv-x="1171" d="M554 658Q483 690 434 702T338 715Q281 715 218 681T103 595V744Q153 797 214 824T349 851Q411 851 469 838T616 786Q689 755 737 742T830 729Q889 729 952 763T1065 849V702Q1017 650 956 622T821
593Q761 593 702 606T554 658Z" />
<glyph unicode="&#xa0;" glyph-name="uni00A0" horiz-adv-x="532" />
<glyph unicode="&#xa1;" glyph-name="exclamdown" horiz-adv-x="541" d="M212 681H323L369 -374H166L212 681ZM388 985Q388 915 354 886T269 856Q219 856 185 885T150 985Q150 1053 184 1084T269 1116Q319 1116 353 1085T388 985Z" />
<glyph unicode="&#xa2;" glyph-name="cent" horiz-adv-x="1171" d="M720 1483V1318Q797 1315 867 1299T989 1260L941 1121Q886 1142 820 1157T697 1173Q582 1173 506 1125T393 982T355 743Q355 601 392 509T502 371T686 325Q774 325 842 342T972 385V240Q917 213
858 197T718 179V-20H590V184Q465 202 374 264T234 444T185 741Q185 924 235 1043T376 1227T590 1310V1483H720Z" />
<glyph unicode="&#xa3;" glyph-name="sterling" horiz-adv-x="1171" d="M686 1481Q797 1481 885 1458T1043 1400L983 1266Q922 1295 848 1318T690 1342Q569 1342 506 1278T443 1072V785H859V658H443V436Q443 352 423 297T371 208T300 152H1092V0H68V141Q129 155
176 189T249 283T276 434V658H77V785H276V1090Q276 1214 326 1301T469 1434T686 1481Z" />
<glyph unicode="&#xa4;" glyph-name="currency" horiz-adv-x="1171" d="M183 723Q183 786 203 845T258 954L121 1095L213 1185L351 1051Q400 1086 460 1105T586 1125Q650 1125 708 1106T816 1051L955 1185L1047 1095L912 955Q945 907 966 848T988 723Q988 659
969 599T912 489L1045 351L955 262L816 396Q768 362 709 343T586 323Q520 323 459 342T351 398L213 263L122 352L258 491Q224 540 204 599T183 723ZM311 723Q311 646 347 584T446 485T585 448Q663 448 726 485T826 584T863 723Q863 801 826 864T726 964T586 1002Q509
1002 447 965T348 864T311 723Z" />
<glyph unicode="&#xa5;" glyph-name="yen" horiz-adv-x="1171" d="M584 741L961 1462H1136L716 691H980V568H665V394H980V271H665V0H503V271H187V394H503V568H187V691H447L31 1462H208L584 741Z" />
<glyph unicode="&#xa6;" glyph-name="brokenbar" horiz-adv-x="1125" d="M492 1557H631V780H492V1557ZM492 282H631V-496H492V282Z" />
<glyph unicode="&#xa7;" glyph-name="section" horiz-adv-x="1052" d="M140 809Q140 910 191 973T309 1067Q233 1106 190 1161T147 1302Q147 1424 250 1495T546 1566Q659 1566 738 1547T892 1497L841 1369Q772 1397 702 1416T535 1436Q410 1436 356 1402T302 1306Q302
1265 328 1234T414 1174T576 1108Q680 1071 755 1028T870 926T911 784Q911 680 864 613T754 511Q827 474 867 420T908 285Q908 146 793 69T468 -9Q355 -9 271 9T122 58V202Q167 181 225 162T347 130T475 118Q630 118 689 164T749 272Q749 314 727 345T647 406T479
477Q374 516 298 558T181 659T140 809ZM283 827Q283 774 312 734T405 660T576 585L630 566Q682 595 724 642T767 760Q767 814 738 856T637 935T441 1010Q379 994 331 946T283 827Z" />
<glyph unicode="&#xa8;" glyph-name="dieresis" horiz-adv-x="1187" d="M310 1394Q310 1444 336 1467T400 1490Q439 1490 465 1467T492 1394Q492 1345 466 1321T400 1296Q362 1296 336 1320T310 1394ZM694 1394Q694 1444 720 1467T783 1490Q821 1490 848 1467T875
1394Q875 1345 848 1321T783 1296Q746 1296 720 1320T694 1394Z" />
<glyph unicode="&#xa9;" glyph-name="copyright" horiz-adv-x="1704" d="M852 -20Q689 -20 552 36T313 193T156 431T100 731Q100 894 156 1031T313 1270T552 1427T852 1483Q1009 1483 1145 1427T1385 1269T1546 1030T1604 731Q1604 569 1548 432T1391 193T1152
36T852 -20ZM884 274Q682 274 580 398T478 731Q478 864 526 966T667 1127T892 1186Q958 1186 1023 1170T1145 1125L1089 1009Q1039 1035 990 1048T894 1062Q767 1062 697 974T627 731Q627 571 690 485T891 399Q941 399 998 412T1108 446V324Q1059 302 1007 288T884
274ZM852 82Q985 82 1101 130T1306 265T1444 471T1494 731Q1494 865 1447 982T1313 1189T1110 1329T852 1380Q712 1380 595 1332T391 1197T257 991T209 731Q209 597 256 480T389 273T593 133T852 82Z" />
<glyph unicode="&#xaa;" glyph-name="ordfeminine" horiz-adv-x="723" d="M360 1479Q490 1479 556 1424T622 1250V800H531L508 887Q469 844 412 816T278 787Q214 787 167 809T94 876T68 988Q68 1056 103 1102T210 1173T391 1202L503 1206V1253Q503 1322 461 1350T356
1378Q301 1378 250 1364T152 1325L109 1420Q161 1446 226 1462T360 1479ZM503 1118L405 1114Q281 1110 236 1078T191 988Q191 935 222 911T306 886Q410 886 456 935T503 1068V1118Z" />
<glyph unicode="&#xab;" glyph-name="guillemotleft" horiz-adv-x="1015" d="M79 556L419 965L538 897L251 544L538 191L419 122L79 529V556ZM477 556L822 965L939 897L653 544L939 191L822 122L477 529V556Z" />
<glyph unicode="&#xac;" glyph-name="logicalnot" horiz-adv-x="1171" d="M1060 790V263H926V654H103V790H1060Z" />
<glyph unicode="&#xad;" glyph-name="uni00AD" horiz-adv-x="659" d="M82 476V624H578V476H82Z" />
<glyph unicode="&#xae;" glyph-name="registered" horiz-adv-x="1704" d="M575 284V1177H836Q999 1177 1077 1112T1155 914Q1155 817 1106 761T992 679L1229 284H1065L858 640H720V284H575ZM720 758H831Q914 758 961 799T1009 910Q1009 987 965 1021T829 1055H720V758ZM852
-20Q689 -20 552 36T313 193T156 431T100 731Q100 894 156 1031T313 1270T552 1427T852 1483Q1009 1483 1145 1427T1385 1269T1546 1030T1604 731Q1604 569 1548 432T1391 193T1152 36T852 -20ZM852 82Q985 82 1101 130T1306 265T1444 471T1494 731Q1494 865 1447
982T1313 1189T1110 1329T852 1380Q712 1380 595 1332T391 1197T257 991T209 731Q209 597 256 480T389 273T593 133T852 82Z" />
<glyph unicode="&#xaf;" glyph-name="overscore" horiz-adv-x="1024" d="M1030 1556H-6V1683H1030V1556Z" />
<glyph unicode="&#xb0;" glyph-name="degree" horiz-adv-x="877" d="M438 859Q342 859 270 898T158 1007T117 1170Q117 1263 156 1333T268 1443T438 1483Q533 1483 605 1444T719 1334T760 1170Q760 1078 719 1008T606 898T438 859ZM440 973Q538 973 587 1027T636
1170Q636 1262 586 1316T440 1371Q339 1371 290 1317T241 1170Q241 1082 289 1028T440 973Z" />
<glyph unicode="&#xb1;" glyph-name="plusminus" horiz-adv-x="1171" d="M103 0V135H1066V0H103ZM652 795H1064V659H652V235H515V659H103V795H515V1221H652V795Z" />
<glyph unicode="&#xb2;" glyph-name="uni00B2" horiz-adv-x="712" d="M627 852H50V956L287 1188Q369 1268 413 1319T473 1411T490 1499Q490 1565 451 1600T346 1636Q285 1636 234 1613T129 1548L62 1637Q122 1687 192 1717T348 1747Q478 1747 552 1683T626 1506Q626
1438 599 1381T518 1266T387 1135L217 971H627V852Z" />
<glyph unicode="&#xb3;" glyph-name="uni00B3" horiz-adv-x="712" d="M339 1747Q482 1747 555 1684T628 1523Q628 1439 584 1386T477 1314V1308Q558 1292 605 1240T653 1104Q653 985 568 911T304 837Q229 837 164 850T37 893V1014Q105 982 174 964T305 946Q413
946 464 989T516 1108Q516 1184 457 1218T289 1253H170V1359H289Q393 1359 441 1400T490 1508Q490 1573 448 1605T341 1637Q277 1637 222 1616T111 1559L43 1648Q105 1693 175 1720T339 1747Z" />
<glyph unicode="&#xb4;" glyph-name="acute" horiz-adv-x="568" d="M487 1569V1549Q467 1520 433 1480T356 1395T272 1310T193 1241H82V1265Q114 1303 152 1356T226 1466T286 1569H487Z" />
<glyph unicode="&#xb5;" glyph-name="uni00B5" horiz-adv-x="1266" d="M1091 1096V0H956L930 152H921Q887 98 840 60T731 1T587 -20Q501 -20 441 7T340 80H332Q335 56 337 21T340 -59T341 -157V-492H175V1096H341V388Q341 255 405 187T598 118Q722 118 793 164T894
300T925 519V1096H1091Z" />
<glyph unicode="&#xb6;" glyph-name="paragraph" horiz-adv-x="1341" d="M1117 -260H1006V1449H790V-260H678V577Q647 568 608 564T532 559Q407 559 315 607T173 764T122 1053Q122 1242 177 1352T331 1509T563 1556H1117V-260Z" />
<glyph unicode="&#xb7;" glyph-name="middot" horiz-adv-x="538" d="M150 714Q150 784 184 813T267 843Q318 843 353 814T388 714Q388 645 353 614T267 582Q218 582 184 613T150 714Z" />
<glyph unicode="&#xb8;" glyph-name="cedilla" horiz-adv-x="454" d="M427 -286Q427 -383 352 -437T132 -492Q101 -492 73 -489T28 -481V-376Q47 -380 77 -383T137 -386Q212 -386 252 -364T292 -290Q292 -235 239 -210T102 -176L191 0H302L248 -112Q298 -122 338
-143T403 -199T427 -286Z" />
<glyph unicode="&#xb9;" glyph-name="uni00B9" horiz-adv-x="712" d="M481 1729V852H346V1418Q346 1454 347 1485T349 1547T353 1607Q332 1588 306 1567T251 1527L142 1450L76 1544L343 1729H481Z" />
<glyph unicode="&#xba;" glyph-name="ordmasculine" horiz-adv-x="765" d="M701 1135Q701 971 615 879T381 787Q242 787 155 876T67 1135Q67 1301 152 1390T385 1480Q482 1480 552 1440T662 1322T701 1135ZM188 1135Q188 1014 234 952T382 889Q484 889 530 951T577
1135Q577 1255 531 1316T383 1377Q282 1377 235 1317T188 1135Z" />
<glyph unicode="&#xbb;" glyph-name="guillemotright" horiz-adv-x="1015" d="M937 530L592 122L476 191L762 545L476 897L592 965L937 557V530ZM536 530L194 122L77 191L363 545L77 897L194 965L536 557V530Z" />
<glyph unicode="&#xbc;" glyph-name="onequarter" horiz-adv-x="1516" d="M263 0L1141 1462H1285L406 0H263ZM336 586V1152Q336 1188 337 1219T339 1281T343 1341Q322 1322 296 1301T241 1260L132 1184L66 1278L333 1462H470V586H336ZM1227 0V205H825V303L1230
883H1369V319H1497V205H1369V0H1227ZM960 319H1227V526Q1227 570 1228 625T1232 729Q1221 704 1191 657T1137 576L960 319Z" />
<glyph unicode="&#xbd;" glyph-name="onehalf" horiz-adv-x="1573" d="M208 0L1087 1462H1230L351 0H208ZM313 586V1152Q313 1179 313 1203T315 1251T318 1296T321 1341Q299 1322 274 1301T219 1260L110 1184L44 1278L311 1462H449V586H313ZM911 0V104L1148 336Q1230
416 1274 467T1335 559T1352 647Q1352 713 1312 748T1207 784Q1145 784 1094 761T990 696L924 785Q983 835 1053 865T1209 895Q1339 895 1413 831T1487 654Q1487 586 1459 529T1378 414T1248 283L1078 119H1488V0H911Z" />
<glyph unicode="&#xbe;" glyph-name="threequarters" horiz-adv-x="1594" d="M356 0L1235 1462H1378L500 0H356ZM300 570Q226 570 160 583T33 627V748Q101 715 170 698T302 680Q410 680 461 723T513 842Q513 918 453 952T285 987H166V1093H285Q389 1093 437 1134T486
1242Q486 1307 444 1339T337 1371Q273 1371 218 1350T107 1293L39 1381Q101 1427 171 1454T336 1481Q478 1481 551 1418T624 1256Q624 1173 580 1120T474 1048V1041Q554 1025 602 973T650 838Q650 719 564 645T300 570ZM1306 0V205H904V303L1309 883H1448V319H1576V205H1448V0H1306ZM1040
319H1306V526Q1306 570 1307 625T1312 729Q1299 704 1269 657T1216 576L1040 319Z" />
<glyph unicode="&#xbf;" glyph-name="questiondown" horiz-adv-x="884" d="M593 684V632Q593 553 578 495T526 387T421 281Q343 216 297 171T232 79T212 -32Q212 -136 279 -191T468 -247Q567 -247 644 -222T792 -162L850 -296Q768 -339 673 -366T458 -393Q265
-393 159 -298T53 -35Q53 58 83 123T168 243T298 359Q365 415 399 457T447 544T460 651V684H593ZM637 986Q637 916 605 887T519 857Q470 857 436 886T401 986Q401 1055 435 1086T519 1118Q572 1118 604 1087T637 986Z" />
<glyph unicode="&#xc0;" glyph-name="Agrave" horiz-adv-x="1295" d="M1117 0L937 464H351L172 0H0L572 1468H725L1293 0H1117ZM886 615L715 1076Q709 1094 696 1135T668 1220T645 1291Q635 1250 624 1210T601 1135T582 1076L408 615H886ZM577 1936Q601 1890 636
1834T711 1724T784 1632V1608H671Q635 1637 593 1677T508 1761T432 1846T379 1916V1936H577Z" />
<glyph unicode="&#xc1;" glyph-name="Aacute" horiz-adv-x="1295" d="M1117 0L937 464H351L172 0H0L572 1468H725L1293 0H1117ZM886 615L715 1076Q709 1094 696 1135T668 1220T645 1291Q635 1250 624 1210T601 1135T582 1076L408 615H886ZM935 1936V1916Q915 1887
881 1847T804 1762T720 1677T641 1608H530V1632Q562 1670 600 1723T674 1833T734 1936H935Z" />
<glyph unicode="&#xc2;" glyph-name="Acircumflex" horiz-adv-x="1295" d="M1117 0L937 464H351L172 0H0L572 1468H725L1293 0H1117ZM886 615L715 1076Q709 1094 696 1135T668 1220T645 1291Q635 1250 624 1210T601 1135T582 1076L408 615H886ZM732 1935Q757 1890
802 1834T897 1723T986 1630V1608H868Q814 1643 757 1694T646 1800Q592 1745 537 1695T427 1608H313V1630Q351 1670 399 1724T492 1834T563 1935H732Z" />
<glyph unicode="&#xc3;" glyph-name="Atilde" horiz-adv-x="1295" d="M1117 0L937 464H351L172 0H0L572 1468H725L1293 0H1117ZM886 615L715 1076Q709 1094 696 1135T668 1220T645 1291Q635 1250 624 1210T601 1135T582 1076L408 615H886ZM269 1611Q275 1671 292
1718T337 1798T403 1848T489 1866Q535 1866 577 1848T657 1806T730 1764T799 1745Q847 1745 873 1774T914 1868H1012Q999 1751 943 1682T792 1612Q748 1612 707 1630T628 1672T554 1714T482 1733Q433 1733 407 1704T367 1611H269Z" />
<glyph unicode="&#xc4;" glyph-name="Adieresis" horiz-adv-x="1295" d="M1117 0L937 464H351L172 0H0L572 1468H725L1293 0H1117ZM886 615L715 1076Q709 1094 696 1135T668 1220T645 1291Q635 1250 624 1210T601 1135T582 1076L408 615H886ZM362 1761Q362 1811
388 1834T452 1857Q491 1857 517 1834T544 1761Q544 1712 518 1688T452 1663Q414 1663 388 1687T362 1761ZM746 1761Q746 1811 772 1834T835 1857Q873 1857 900 1834T927 1761Q927 1712 900 1688T835 1663Q798 1663 772 1687T746 1761Z" />
<glyph unicode="&#xc5;" glyph-name="Aring" horiz-adv-x="1295" d="M1117 0L937 464H351L172 0H0L572 1468H725L1293 0H1117ZM886 615L715 1076Q709 1094 696 1135T668 1220T645 1291Q635 1250 624 1210T601 1135T582 1076L408 615H886ZM643 1372Q546 1372 484
1429T422 1588Q422 1688 483 1745T643 1802Q738 1802 803 1745T868 1590Q868 1487 804 1430T643 1372ZM643 1468Q696 1468 729 1500T763 1588Q763 1643 729 1675T643 1707Q593 1707 559 1675T524 1588Q524 1533 555 1501T643 1468Z" />
<glyph unicode="&#xc6;" glyph-name="AE" horiz-adv-x="1778" d="M1665 0H901V464H396L174 0H-2L685 1462H1665V1312H1071V839H1626V691H1071V150H1665V0ZM462 615H901V1310H786L462 615Z" />
<glyph unicode="&#xc7;" glyph-name="Ccedilla" horiz-adv-x="1290" d="M825 1333Q704 1333 608 1292T444 1172T340 982T304 732Q304 548 361 413T533 203T820 129Q918 129 1004 145T1173 187V39Q1093 9 1005 -5T796 -20Q573 -20 424 72T200 334T125 733Q125 899
171 1036T307 1274T527 1428T827 1483Q938 1483 1041 1461T1227 1398L1159 1254Q1089 1286 1006 1309T825 1333ZM961 -286Q961 -383 886 -437T666 -492Q635 -492 607 -489T562 -481V-376Q581 -380 611 -383T671 -386Q746 -386 786 -364T826 -290Q826 -235 773 -210T636
-176L725 0H836L782 -112Q832 -122 872 -143T937 -199T961 -286Z" />
<glyph unicode="&#xc8;" glyph-name="Egrave" horiz-adv-x="1138" d="M1014 0H200V1462H1014V1312H370V839H977V691H370V150H1014V0ZM557 1936Q581 1890 616 1834T691 1724T764 1632V1608H651Q615 1637 573 1677T488 1761T412 1846T359 1916V1936H557Z" />
<glyph unicode="&#xc9;" glyph-name="Eacute" horiz-adv-x="1138" d="M1014 0H200V1462H1014V1312H370V839H977V691H370V150H1014V0ZM916 1936V1916Q896 1887 862 1847T785 1762T701 1677T622 1608H511V1632Q543 1670 581 1723T655 1833T715 1936H916Z" />
<glyph unicode="&#xca;" glyph-name="Ecircumflex" horiz-adv-x="1138" d="M1014 0H200V1462H1014V1312H370V839H977V691H370V150H1014V0ZM712 1935Q737 1890 782 1834T877 1723T966 1630V1608H848Q794 1643 737 1694T626 1800Q572 1745 517 1695T407 1608H293V1630Q331
1670 379 1724T472 1834T543 1935H712Z" />
<glyph unicode="&#xcb;" glyph-name="Edieresis" horiz-adv-x="1138" d="M1014 0H200V1462H1014V1312H370V839H977V691H370V150H1014V0ZM343 1761Q343 1811 369 1834T433 1857Q472 1857 498 1834T525 1761Q525 1712 499 1688T433 1663Q395 1663 369 1687T343 1761ZM727
1761Q727 1811 753 1834T816 1857Q854 1857 881 1834T908 1761Q908 1712 881 1688T816 1663Q779 1663 753 1687T727 1761Z" />
<glyph unicode="&#xcc;" glyph-name="Igrave" horiz-adv-x="572" d="M200 0V1462H370V0H200ZM186 1936Q210 1890 245 1834T320 1724T393 1632V1608H280Q244 1637 202 1677T117 1761T41 1846T-12 1916V1936H186Z" />
<glyph unicode="&#xcd;" glyph-name="Iacute" horiz-adv-x="572" d="M200 0V1462H370V0H200ZM585 1936V1916Q565 1887 531 1847T454 1762T370 1677T291 1608H180V1632Q212 1670 250 1723T324 1833T384 1936H585Z" />
<glyph unicode="&#xce;" glyph-name="Icircumflex" horiz-adv-x="572" d="M200 0V1462H370V0H200ZM369 1935Q394 1890 439 1834T534 1723T623 1630V1608H505Q451 1643 394 1694T283 1800Q229 1745 174 1695T64 1608H-50V1630Q-12 1670 36 1724T129 1834T200 1935H369Z" />
<glyph unicode="&#xcf;" glyph-name="Idieresis" horiz-adv-x="572" d="M200 0V1462H370V0H200ZM6 1761Q6 1811 32 1834T96 1857Q135 1857 161 1834T188 1761Q188 1712 162 1688T96 1663Q58 1663 32 1687T6 1761ZM390 1761Q390 1811 416 1834T479 1857Q517 1857
544 1834T571 1761Q571 1712 544 1688T479 1663Q442 1663 416 1687T390 1761Z" />
<glyph unicode="&#xd0;" glyph-name="Eth" horiz-adv-x="1486" d="M641 1462Q863 1462 1024 1381T1273 1140T1361 745Q1361 498 1271 333T1010 84T595 0H213V649H58V798H213V1462H641ZM615 1317H382V798H754V649H382V146H577Q880 146 1031 295T1182 739Q1182 936
1116 1064T924 1254T615 1317Z" />
<glyph unicode="&#xd1;" glyph-name="Ntilde" horiz-adv-x="1542" d="M1343 0H1147L350 1228H342Q345 1179 349 1117T355 984T358 840V0H200V1462H395L1189 238H1196Q1194 273 1191 337T1186 476T1183 615V1462H1343V0ZM398 1611Q404 1671 421 1718T466 1798T532
1848T618 1866Q664 1866 706 1848T786 1806T859 1764T928 1745Q976 1745 1002 1774T1043 1868H1141Q1128 1751 1072 1682T921 1612Q877 1612 836 1630T757 1672T683 1714T611 1733Q562 1733 536 1704T496 1611H398Z" />
<glyph unicode="&#xd2;" glyph-name="Ograve" horiz-adv-x="1593" d="M1468 733Q1468 564 1425 426T1298 188T1088 34T798 -20Q628 -20 502 34T292 188T167 427T125 735Q125 959 199 1128T423 1391T801 1485Q1018 1485 1166 1392T1391 1131T1468 733ZM304 733Q304
547 357 411T519 201T798 127Q968 127 1076 201T1237 411T1289 733Q1289 1016 1171 1175T801 1335Q631 1335 521 1262T358 1055T304 733ZM730 1936Q754 1890 789 1834T864 1724T937 1632V1608H824Q788 1637 746 1677T661 1761T585 1846T532 1916V1936H730Z" />
<glyph unicode="&#xd3;" glyph-name="Oacute" horiz-adv-x="1593" d="M1468 733Q1468 564 1425 426T1298 188T1088 34T798 -20Q628 -20 502 34T292 188T167 427T125 735Q125 959 199 1128T423 1391T801 1485Q1018 1485 1166 1392T1391 1131T1468 733ZM304 733Q304
547 357 411T519 201T798 127Q968 127 1076 201T1237 411T1289 733Q1289 1016 1171 1175T801 1335Q631 1335 521 1262T358 1055T304 733ZM1087 1936V1916Q1067 1887 1033 1847T956 1762T872 1677T793 1608H682V1632Q714 1670 752 1723T826 1833T886 1936H1087Z"
/>
<glyph unicode="&#xd4;" glyph-name="Ocircumflex" horiz-adv-x="1593" d="M1468 733Q1468 564 1425 426T1298 188T1088 34T798 -20Q628 -20 502 34T292 188T167 427T125 735Q125 959 199 1128T423 1391T801 1485Q1018 1485 1166 1392T1391 1131T1468 733ZM304
733Q304 547 357 411T519 201T798 127Q968 127 1076 201T1237 411T1289 733Q1289 1016 1171 1175T801 1335Q631 1335 521 1262T358 1055T304 733ZM884 1935Q909 1890 954 1834T1049 1723T1138 1630V1608H1020Q966 1643 909 1694T798 1800Q744 1745 689 1695T579
1608H465V1630Q503 1670 551 1724T644 1834T715 1935H884Z" />
<glyph unicode="&#xd5;" glyph-name="Otilde" horiz-adv-x="1593" d="M1468 733Q1468 564 1425 426T1298 188T1088 34T798 -20Q628 -20 502 34T292 188T167 427T125 735Q125 959 199 1128T423 1391T801 1485Q1018 1485 1166 1392T1391 1131T1468 733ZM304 733Q304
547 357 411T519 201T798 127Q968 127 1076 201T1237 411T1289 733Q1289 1016 1171 1175T801 1335Q631 1335 521 1262T358 1055T304 733ZM420 1611Q426 1671 443 1718T488 1798T554 1848T640 1866Q686 1866 728 1848T808 1806T881 1764T950 1745Q998 1745 1024
1774T1065 1868H1163Q1150 1751 1094 1682T943 1612Q899 1612 858 1630T779 1672T705 1714T633 1733Q584 1733 558 1704T518 1611H420Z" />
<glyph unicode="&#xd6;" glyph-name="Odieresis" horiz-adv-x="1593" d="M1468 733Q1468 564 1425 426T1298 188T1088 34T798 -20Q628 -20 502 34T292 188T167 427T125 735Q125 959 199 1128T423 1391T801 1485Q1018 1485 1166 1392T1391 1131T1468 733ZM304 733Q304
547 357 411T519 201T798 127Q968 127 1076 201T1237 411T1289 733Q1289 1016 1171 1175T801 1335Q631 1335 521 1262T358 1055T304 733ZM514 1761Q514 1811 540 1834T604 1857Q643 1857 669 1834T696 1761Q696 1712 670 1688T604 1663Q566 1663 540 1687T514 1761ZM898
1761Q898 1811 924 1834T987 1857Q1025 1857 1052 1834T1079 1761Q1079 1712 1052 1688T987 1663Q950 1663 924 1687T898 1761Z" />
<glyph unicode="&#xd7;" glyph-name="multiply" horiz-adv-x="1171" d="M940 1174L1034 1077L680 723L1033 369L938 272L582 624L233 272L134 369L487 723L133 1075L232 1174L584 818L940 1174Z" />
<glyph unicode="&#xd8;" glyph-name="Oslash" horiz-adv-x="1593" d="M1468 733Q1468 564 1425 426T1298 188T1088 34T798 -20Q680 -20 584 5T414 82L312 -62L196 14L306 170Q215 270 170 413T125 735Q125 959 199 1128T423 1391T801 1485Q908 1485 1001 1460T1169
1388L1267 1527L1382 1448L1276 1300Q1369 1202 1418 1059T1468 733ZM1289 733Q1289 867 1261 975T1178 1160L505 212Q561 172 634 150T798 127Q968 127 1076 201T1237 411T1289 733ZM304 733Q304 603 330 498T408 315L1078 1257Q1024 1295 955 1315T801 1335Q631
1335 521 1262T358 1055T304 733Z" />
<glyph unicode="&#xd9;" glyph-name="Ugrave" horiz-adv-x="1493" d="M1306 1462V516Q1306 361 1244 240T1055 50T739 -20Q468 -20 327 127T185 520V1462H356V515Q356 329 454 228T749 127Q883 127 968 175T1095 311T1137 514V1462H1306ZM679 1936Q703 1890 738
1834T813 1724T886 1632V1608H773Q737 1637 695 1677T610 1761T534 1846T481 1916V1936H679Z" />
<glyph unicode="&#xda;" glyph-name="Uacute" horiz-adv-x="1493" d="M1306 1462V516Q1306 361 1244 240T1055 50T739 -20Q468 -20 327 127T185 520V1462H356V515Q356 329 454 228T749 127Q883 127 968 175T1095 311T1137 514V1462H1306ZM1037 1936V1916Q1017
1887 983 1847T906 1762T822 1677T743 1608H632V1632Q664 1670 702 1723T776 1833T836 1936H1037Z" />
<glyph unicode="&#xdb;" glyph-name="Ucircumflex" horiz-adv-x="1493" d="M1306 1462V516Q1306 361 1244 240T1055 50T739 -20Q468 -20 327 127T185 520V1462H356V515Q356 329 454 228T749 127Q883 127 968 175T1095 311T1137 514V1462H1306ZM834 1935Q859 1890
904 1834T999 1723T1088 1630V1608H970Q916 1643 859 1694T748 1800Q694 1745 639 1695T529 1608H415V1630Q453 1670 501 1724T594 1834T665 1935H834Z" />
<glyph unicode="&#xdc;" glyph-name="Udieresis" horiz-adv-x="1493" d="M1306 1462V516Q1306 361 1244 240T1055 50T739 -20Q468 -20 327 127T185 520V1462H356V515Q356 329 454 228T749 127Q883 127 968 175T1095 311T1137 514V1462H1306ZM465 1761Q465 1811
491 1834T555 1857Q594 1857 620 1834T647 1761Q647 1712 621 1688T555 1663Q517 1663 491 1687T465 1761ZM849 1761Q849 1811 875 1834T938 1857Q976 1857 1003 1834T1030 1761Q1030 1712 1003 1688T938 1663Q901 1663 875 1687T849 1761Z" />
<glyph unicode="&#xdd;" glyph-name="Yacute" horiz-adv-x="1145" d="M573 729L962 1462H1145L658 567V0H488V559L0 1462H186L573 729ZM863 1936V1916Q843 1887 809 1847T732 1762T648 1677T569 1608H458V1632Q490 1670 528 1723T602 1833T662 1936H863Z" />
<glyph unicode="&#xde;" glyph-name="Thorn" horiz-adv-x="1232" d="M1127 782Q1127 688 1097 605T1000 458T821 358T546 321H370V0H200V1462H370V1206H579Q869 1206 998 1096T1127 782ZM370 466H528Q672 466 765 496T905 594T951 773Q951 920 860 990T565 1061H370V466Z" />
<glyph unicode="&#xdf;" glyph-name="germandbls" horiz-adv-x="1275" d="M1050 1268Q1050 1197 1021 1146T950 1056T865 984T793 919T764 846Q764 815 778 791T832 737T946 657Q1018 609 1071 560T1152 452T1181 309Q1181 197 1134 124T1003 16T805 -20Q708 -20
636 -3T510 47V198Q547 177 593 158T693 127T800 115Q916 115 967 164T1019 298Q1019 351 1001 390T940 466T826 550Q743 604 694 648T624 736T603 837Q603 902 631 946T701 1025T784 1091T854 1162T882 1258Q882 1346 810 1387T622 1428Q545 1428 481 1407T379
1334T341 1191V0H175V1191Q175 1328 233 1410T392 1530T622 1567Q751 1567 847 1534T996 1434T1050 1268Z" />
<glyph unicode="&#xe0;" glyph-name="agrave" horiz-adv-x="1138" d="M585 1114Q781 1114 876 1026T971 745V0H850L818 162H810Q764 102 714 62T599 1T438 -20Q338 -20 261 15T139 121T94 301Q94 465 224 553T620 649L809 657V724Q809 866 748 923T576 980Q490
980 412 955T264 896L213 1022Q287 1060 383 1087T585 1114ZM807 540L640 533Q435 525 351 466T267 299Q267 205 324 160T475 115Q621 115 714 196T807 439V540ZM500 1569Q524 1523 559 1467T634 1357T707 1265V1241H594Q558 1270 516 1310T431 1394T355 1479T302
1549V1569H500Z" />
<glyph unicode="&#xe1;" glyph-name="aacute" horiz-adv-x="1138" d="M585 1114Q781 1114 876 1026T971 745V0H850L818 162H810Q764 102 714 62T599 1T438 -20Q338 -20 261 15T139 121T94 301Q94 465 224 553T620 649L809 657V724Q809 866 748 923T576 980Q490
980 412 955T264 896L213 1022Q287 1060 383 1087T585 1114ZM807 540L640 533Q435 525 351 466T267 299Q267 205 324 160T475 115Q621 115 714 196T807 439V540ZM859 1569V1549Q839 1520 805 1480T728 1395T644 1310T565 1241H454V1265Q486 1303 524 1356T598 1466T658
1569H859Z" />
<glyph unicode="&#xe2;" glyph-name="acircumflex" horiz-adv-x="1138" d="M585 1114Q781 1114 876 1026T971 745V0H850L818 162H810Q764 102 714 62T599 1T438 -20Q338 -20 261 15T139 121T94 301Q94 465 224 553T620 649L809 657V724Q809 866 748 923T576 980Q490
980 412 955T264 896L213 1022Q287 1060 383 1087T585 1114ZM807 540L640 533Q435 525 351 466T267 299Q267 205 324 160T475 115Q621 115 714 196T807 439V540ZM655 1568Q680 1523 725 1467T820 1356T909 1263V1241H791Q737 1276 680 1327T569 1433Q515 1378 460
1328T350 1241H236V1263Q274 1303 322 1357T415 1467T486 1568H655Z" />
<glyph unicode="&#xe3;" glyph-name="atilde" horiz-adv-x="1138" d="M585 1114Q781 1114 876 1026T971 745V0H850L818 162H810Q764 102 714 62T599 1T438 -20Q338 -20 261 15T139 121T94 301Q94 465 224 553T620 649L809 657V724Q809 866 748 923T576 980Q490
980 412 955T264 896L213 1022Q287 1060 383 1087T585 1114ZM807 540L640 533Q435 525 351 466T267 299Q267 205 324 160T475 115Q621 115 714 196T807 439V540ZM191 1244Q197 1304 214 1351T259 1431T325 1481T411 1499Q457 1499 499 1481T579 1439T652 1397T721
1378Q769 1378 795 1407T836 1501H934Q921 1384 865 1315T714 1245Q670 1245 629 1263T550 1305T476 1347T404 1366Q355 1366 329 1337T289 1244H191Z" />
<glyph unicode="&#xe4;" glyph-name="adieresis" horiz-adv-x="1138" d="M585 1114Q781 1114 876 1026T971 745V0H850L818 162H810Q764 102 714 62T599 1T438 -20Q338 -20 261 15T139 121T94 301Q94 465 224 553T620 649L809 657V724Q809 866 748 923T576 980Q490
980 412 955T264 896L213 1022Q287 1060 383 1087T585 1114ZM807 540L640 533Q435 525 351 466T267 299Q267 205 324 160T475 115Q621 115 714 196T807 439V540ZM542 1394Q542 1444 568 1467T632 1490Q671 1490 697 1467T724 1394Q724 1345 698 1321T632 1296Q594
1296 568 1320T542 1394ZM926 1394Q926 1444 952 1467T1015 1490Q1053 1490 1080 1467T1107 1394Q1107 1345 1080 1321T1015 1296Q978 1296 952 1320T926 1394Z" />
<glyph unicode="&#xe5;" glyph-name="aring" horiz-adv-x="1138" d="M585 1114Q781 1114 876 1026T971 745V0H850L818 162H810Q764 102 714 62T599 1T438 -20Q338 -20 261 15T139 121T94 301Q94 465 224 553T620 649L809 657V724Q809 866 748 923T576 980Q490
980 412 955T264 896L213 1022Q287 1060 383 1087T585 1114ZM807 540L640 533Q435 525 351 466T267 299Q267 205 324 160T475 115Q621 115 714 196T807 439V540ZM569 1242Q472 1242 410 1299T348 1458Q348 1558 409 1615T569 1672Q664 1672 729 1615T794 1460Q794
1357 730 1300T569 1242ZM569 1338Q622 1338 655 1370T689 1458Q689 1513 655 1545T569 1577Q519 1577 485 1545T450 1458Q450 1403 481 1371T569 1338Z" />
<glyph unicode="&#xe6;" glyph-name="ae" horiz-adv-x="1766" d="M1235 1116Q1368 1116 1463 1054T1610 881T1660 624V519H951Q955 317 1038 220T1277 122Q1377 122 1454 141T1612 197V51Q1530 14 1452 -3T1272 -20Q1176 -20 1097 7T957 88T856 220Q811 147 756
93T624 10T441 -20Q341 -20 263 15T139 121T94 301Q94 410 149 485T316 602T595 649L781 657V728Q781 867 718 923T547 980Q466 980 388 956T239 896L187 1022Q261 1061 360 1087T560 1114Q689 1114 771 1069T893 923Q946 1014 1033 1065T1235 1116ZM777 540L620
533Q427 525 347 466T267 299Q267 205 321 160T467 115Q557 115 627 151T737 259T777 439V540ZM1233 980Q1112 980 1039 896T955 650H1484Q1485 749 1458 823T1375 939T1233 980Z" />
<glyph unicode="&#xe7;" glyph-name="ccedilla" horiz-adv-x="981" d="M614 -20Q466 -20 353 41T177 227T114 542Q114 741 180 867T364 1055T630 1116Q712 1116 788 1100T914 1058L864 919Q814 939 749 955T626 971Q512 971 437 922T324 778T286 544Q286 411 322
317T431 174T613 124Q700 124 770 142T897 186V38Q842 10 775 -5T614 -20ZM777 -286Q777 -383 702 -437T482 -492Q451 -492 423 -489T378 -481V-376Q397 -380 427 -383T487 -386Q562 -386 602 -364T642 -290Q642 -235 589 -210T452 -176L541 0H652L598 -112Q648
-122 688 -143T753 -199T777 -286Z" />
<glyph unicode="&#xe8;" glyph-name="egrave" horiz-adv-x="1150" d="M597 1116Q737 1116 837 1054T990 881T1043 620V517H286Q289 324 382 223T644 122Q748 122 828 141T994 197V51Q911 14 830 -3T637 -20Q479 -20 362 44T179 234T114 540Q114 717 173 846T341
1046T597 1116ZM595 980Q462 980 383 893T289 650H869Q868 748 839 822T749 938T595 980ZM514 1569Q538 1523 573 1467T648 1357T721 1265V1241H608Q572 1270 530 1310T445 1394T369 1479T316 1549V1569H514Z" />
<glyph unicode="&#xe9;" glyph-name="eacute" horiz-adv-x="1150" d="M597 1116Q737 1116 837 1054T990 881T1043 620V517H286Q289 324 382 223T644 122Q748 122 828 141T994 197V51Q911 14 830 -3T637 -20Q479 -20 362 44T179 234T114 540Q114 717 173 846T341
1046T597 1116ZM595 980Q462 980 383 893T289 650H869Q868 748 839 822T749 938T595 980ZM872 1569V1549Q852 1520 818 1480T741 1395T657 1310T578 1241H467V1265Q499 1303 537 1356T611 1466T671 1569H872Z" />
<glyph unicode="&#xea;" glyph-name="ecircumflex" horiz-adv-x="1150" d="M597 1116Q737 1116 837 1054T990 881T1043 620V517H286Q289 324 382 223T644 122Q748 122 828 141T994 197V51Q911 14 830 -3T637 -20Q479 -20 362 44T179 234T114 540Q114 717 173 846T341
1046T597 1116ZM595 980Q462 980 383 893T289 650H869Q868 748 839 822T749 938T595 980ZM669 1568Q694 1523 739 1467T834 1356T923 1263V1241H805Q751 1276 694 1327T583 1433Q529 1378 474 1328T364 1241H250V1263Q288 1303 336 1357T429 1467T500 1568H669Z"
/>
<glyph unicode="&#xeb;" glyph-name="edieresis" horiz-adv-x="1150" d="M597 1116Q737 1116 837 1054T990 881T1043 620V517H286Q289 324 382 223T644 122Q748 122 828 141T994 197V51Q911 14 830 -3T637 -20Q479 -20 362 44T179 234T114 540Q114 717 173 846T341
1046T597 1116ZM595 980Q462 980 383 893T289 650H869Q868 748 839 822T749 938T595 980ZM556 1394Q556 1444 582 1467T646 1490Q685 1490 711 1467T738 1394Q738 1345 712 1321T646 1296Q608 1296 582 1320T556 1394ZM940 1394Q940 1444 966 1467T1029 1490Q1067
1490 1094 1467T1121 1394Q1121 1345 1094 1321T1029 1296Q992 1296 966 1320T940 1394Z" />
<glyph unicode="&#xec;" glyph-name="igrave" horiz-adv-x="517" d="M341 0H175V1096H341V0ZM446 1569Q470 1523 505 1467T580 1357T653 1265V1241H540Q504 1270 462 1310T377 1394T301 1479T248 1549V1569H446Z" />
<glyph unicode="&#xed;" glyph-name="iacute" horiz-adv-x="517" d="M341 0H175V1096H341V0ZM548 1569V1549Q528 1520 494 1480T417 1395T333 1310T254 1241H143V1265Q175 1303 213 1356T287 1466T347 1569H548Z" />
<glyph unicode="&#xee;" glyph-name="icircumflex" horiz-adv-x="517" d="M341 0H175V1096H341V0ZM344 1568Q369 1523 414 1467T509 1356T598 1263V1241H480Q426 1276 369 1327T258 1433Q204 1378 149 1328T39 1241H-75V1263Q-37 1303 11 1357T104 1467T175 1568H344Z" />
<glyph unicode="&#xef;" glyph-name="idieresis" horiz-adv-x="517" d="M341 0H175V1096H341V0ZM-25 1394Q-25 1444 1 1467T65 1490Q104 1490 130 1467T157 1394Q157 1345 131 1321T65 1296Q27 1296 1 1320T-25 1394ZM359 1394Q359 1444 385 1467T448 1490Q486
1490 513 1467T540 1394Q540 1345 513 1321T448 1296Q411 1296 385 1320T359 1394Z" />
<glyph unicode="&#xf0;" glyph-name="eth" horiz-adv-x="1228" d="M439 1565Q507 1534 572 1497T695 1417L930 1554L1002 1452L798 1333Q893 1244 964 1128T1075 869T1115 562Q1115 372 1055 242T882 46T610 -20Q464 -20 352 40T176 211T113 475Q113 628 172 738T338
907T591 967Q666 967 727 954T835 913T915 845L924 848Q892 969 824 1072T666 1256L399 1102L328 1206L559 1339Q516 1369 468 1397T371 1451L439 1565ZM616 832Q501 832 427 790T318 667T282 469Q282 365 317 285T426 161T614 116Q785 116 866 220T947 522Q947
584 928 639T868 738T766 807T616 832Z" />
<glyph unicode="&#xf1;" glyph-name="ntilde" horiz-adv-x="1256" d="M694 1116Q889 1116 989 1021T1089 714V0H925V703Q925 840 863 908T671 976Q489 976 415 873T341 574V0H175V1096H309L334 938H343Q378 996 432 1035T553 1095T694 1116ZM254 1244Q260 1304
277 1351T322 1431T388 1481T474 1499Q520 1499 562 1481T642 1439T715 1397T784 1378Q832 1378 858 1407T899 1501H997Q984 1384 928 1315T777 1245Q733 1245 692 1263T613 1305T539 1347T467 1366Q418 1366 392 1337T352 1244H254Z" />
<glyph unicode="&#xf2;" glyph-name="ograve" horiz-adv-x="1232" d="M1120 550Q1120 415 1085 309T984 130T825 19T613 -20Q503 -20 412 18T254 130T151 309T114 550Q114 730 175 856T349 1049T620 1116Q770 1116 882 1049T1057 856T1120 550ZM286 550Q286 418
321 321T429 171T617 118Q731 118 804 171T913 321T948 550Q948 681 913 776T805 924T616 976Q445 976 366 863T286 550ZM548 1569Q572 1523 607 1467T682 1357T755 1265V1241H642Q606 1270 564 1310T479 1394T403 1479T350 1549V1569H548Z" />
<glyph unicode="&#xf3;" glyph-name="oacute" horiz-adv-x="1232" d="M1120 550Q1120 415 1085 309T984 130T825 19T613 -20Q503 -20 412 18T254 130T151 309T114 550Q114 730 175 856T349 1049T620 1116Q770 1116 882 1049T1057 856T1120 550ZM286 550Q286 418
321 321T429 171T617 118Q731 118 804 171T913 321T948 550Q948 681 913 776T805 924T616 976Q445 976 366 863T286 550ZM907 1569V1549Q887 1520 853 1480T776 1395T692 1310T613 1241H502V1265Q534 1303 572 1356T646 1466T706 1569H907Z" />
<glyph unicode="&#xf4;" glyph-name="ocircumflex" horiz-adv-x="1232" d="M1120 550Q1120 415 1085 309T984 130T825 19T613 -20Q503 -20 412 18T254 130T151 309T114 550Q114 730 175 856T349 1049T620 1116Q770 1116 882 1049T1057 856T1120 550ZM286 550Q286
418 321 321T429 171T617 118Q731 118 804 171T913 321T948 550Q948 681 913 776T805 924T616 976Q445 976 366 863T286 550ZM703 1568Q728 1523 773 1467T868 1356T957 1263V1241H839Q785 1276 728 1327T617 1433Q563 1378 508 1328T398 1241H284V1263Q322 1303
370 1357T463 1467T534 1568H703Z" />
<glyph unicode="&#xf5;" glyph-name="otilde" horiz-adv-x="1232" d="M1120 550Q1120 415 1085 309T984 130T825 19T613 -20Q503 -20 412 18T254 130T151 309T114 550Q114 730 175 856T349 1049T620 1116Q770 1116 882 1049T1057 856T1120 550ZM286 550Q286 418
321 321T429 171T617 118Q731 118 804 171T913 321T948 550Q948 681 913 776T805 924T616 976Q445 976 366 863T286 550ZM240 1244Q246 1304 263 1351T308 1431T374 1481T460 1499Q506 1499 548 1481T628 1439T701 1397T770 1378Q818 1378 844 1407T885 1501H983Q970
1384 914 1315T763 1245Q719 1245 678 1263T599 1305T525 1347T453 1366Q404 1366 378 1337T338 1244H240Z" />
<glyph unicode="&#xf6;" glyph-name="odieresis" horiz-adv-x="1232" d="M1120 550Q1120 415 1085 309T984 130T825 19T613 -20Q503 -20 412 18T254 130T151 309T114 550Q114 730 175 856T349 1049T620 1116Q770 1116 882 1049T1057 856T1120 550ZM286 550Q286
418 321 321T429 171T617 118Q731 118 804 171T913 321T948 550Q948 681 913 776T805 924T616 976Q445 976 366 863T286 550ZM334 1394Q334 1444 360 1467T424 1490Q463 1490 489 1467T516 1394Q516 1345 490 1321T424 1296Q386 1296 360 1320T334 1394ZM718 1394Q718
1444 744 1467T807 1490Q845 1490 872 1467T899 1394Q899 1345 872 1321T807 1296Q770 1296 744 1320T718 1394Z" />
<glyph unicode="&#xf7;" glyph-name="divide" horiz-adv-x="1171" d="M103 654V790H1066V654H103ZM584 253Q538 253 507 281T476 371Q476 436 507 462T584 488Q628 488 659 462T690 371Q690 310 659 282T584 253ZM584 955Q538 955 507 983T476 1073Q476 1137 507
1163T584 1189Q628 1189 659 1163T690 1073Q690 1012 659 984T584 955Z" />
<glyph unicode="&#xf8;" glyph-name="oslash" horiz-adv-x="1232" d="M1120 550Q1120 370 1059 243T884 48T613 -20Q534 -20 467 -2T342 54L254 -67L145 8L242 140Q181 215 148 317T114 550Q114 820 249 968T620 1116Q698 1116 767 1096T892 1038L977 1157L1089
1084L992 952Q1052 879 1086 778T1120 550ZM286 550Q286 468 298 400T339 279L807 919Q770 946 722 961T616 976Q445 976 366 863T286 550ZM948 550Q948 629 935 696T896 814L428 173Q463 146 511 132T617 118Q731 118 804 171T913 321T948 550Z" />
<glyph unicode="&#xf9;" glyph-name="ugrave" horiz-adv-x="1256" d="M1080 1096V0H944L920 154H911Q877 97 823 58T702 0T558 -20Q428 -20 340 22T208 152T163 378V1096H331V390Q331 253 393 186T582 118Q704 118 776 164T881 299T913 519V1096H1080ZM560 1569Q584
1523 619 1467T694 1357T767 1265V1241H654Q618 1270 576 1310T491 1394T415 1479T362 1549V1569H560Z" />
<glyph unicode="&#xfa;" glyph-name="uacute" horiz-adv-x="1256" d="M1080 1096V0H944L920 154H911Q877 97 823 58T702 0T558 -20Q428 -20 340 22T208 152T163 378V1096H331V390Q331 253 393 186T582 118Q704 118 776 164T881 299T913 519V1096H1080ZM918 1569V1549Q898
1520 864 1480T787 1395T703 1310T624 1241H513V1265Q545 1303 583 1356T657 1466T717 1569H918Z" />
<glyph unicode="&#xfb;" glyph-name="ucircumflex" horiz-adv-x="1256" d="M1080 1096V0H944L920 154H911Q877 97 823 58T702 0T558 -20Q428 -20 340 22T208 152T163 378V1096H331V390Q331 253 393 186T582 118Q704 118 776 164T881 299T913 519V1096H1080ZM714
1568Q739 1523 784 1467T879 1356T968 1263V1241H850Q796 1276 739 1327T628 1433Q574 1378 519 1328T409 1241H295V1263Q333 1303 381 1357T474 1467T545 1568H714Z" />
<glyph unicode="&#xfc;" glyph-name="udieresis" horiz-adv-x="1256" d="M1080 1096V0H944L920 154H911Q877 97 823 58T702 0T558 -20Q428 -20 340 22T208 152T163 378V1096H331V390Q331 253 393 186T582 118Q704 118 776 164T881 299T913 519V1096H1080ZM345
1394Q345 1444 371 1467T435 1490Q474 1490 500 1467T527 1394Q527 1345 501 1321T435 1296Q397 1296 371 1320T345 1394ZM729 1394Q729 1444 755 1467T818 1490Q856 1490 883 1467T910 1394Q910 1345 883 1321T818 1296Q781 1296 755 1320T729 1394Z" />
<glyph unicode="&#xfd;" glyph-name="yacute" horiz-adv-x="1026" d="M2 1096H180L422 460Q443 404 461 353T493 254T515 163H522Q536 213 562 294T618 461L847 1096H1026L549 -161Q511 -262 461 -337T338 -452T164 -493Q117 -493 81 -488T19 -475V-342Q41 -347
72 -351T138 -355Q200 -355 245 -332T324 -263T381 -156L441 -2L2 1096ZM802 1569V1549Q782 1520 748 1480T671 1395T587 1310T508 1241H397V1265Q429 1303 467 1356T541 1466T601 1569H802Z" />
<glyph unicode="&#xfe;" glyph-name="thorn" horiz-adv-x="1253" d="M1139 551Q1139 364 1083 237T926 45T688 -20Q600 -20 534 3T421 64T342 150H330Q332 132 335 98T340 27T342 -33V-490H175V1556H342V1095Q342 1064 340 1015T336 937H343Q375 986 421 1026T534
1091T690 1116Q895 1116 1017 973T1139 551ZM968 553Q968 765 894 870T663 976Q491 976 418 878T342 585V549Q342 341 413 230T663 118Q766 118 833 168T934 316T968 553Z" />
<glyph unicode="&#xff;" glyph-name="ydieresis" horiz-adv-x="1026" d="M2 1096H180L422 460Q443 404 461 353T493 254T515 163H522Q536 213 562 294T618 461L847 1096H1026L549 -161Q511 -262 461 -337T338 -452T164 -493Q117 -493 81 -488T19 -475V-342Q41
-347 72 -351T138 -355Q200 -355 245 -332T324 -263T381 -156L441 -2L2 1096ZM485 1394Q485 1444 511 1467T575 1490Q614 1490 640 1467T667 1394Q667 1345 641 1321T575 1296Q537 1296 511 1320T485 1394ZM869 1394Q869 1444 895 1467T958 1490Q996 1490 1023
1467T1050 1394Q1050 1345 1023 1321T958 1296Q921 1296 895 1320T869 1394Z" />
<glyph unicode="&#x2013;" glyph-name="endash" horiz-adv-x="1024" d="M82 476V624H942V476H82Z" />
<glyph unicode="&#x2014;" glyph-name="emdash" horiz-adv-x="2048" d="M82 476V624H1966V476H82Z" />
<glyph unicode="&#x2018;" glyph-name="quoteleft" horiz-adv-x="347" d="M39 961L27 983Q45 1056 73 1139T134 1306T200 1462H322Q302 1385 282 1296T244 1120T216 961H39Z" />
<glyph unicode="&#x2019;" glyph-name="quoteright" horiz-adv-x="347" d="M306 1462L321 1440Q303 1367 275 1284T214 1117T148 961H26Q41 1018 56 1083T86 1215T111 1345T131 1462H306Z" />
<glyph unicode="&#x201a;" glyph-name="quotesinglbase" horiz-adv-x="501" d="M345 237L360 215Q342 142 314 59T253 -108T187 -264H65Q80 -207 95 -142T125 -10T150 120T170 237H345Z" />
<glyph unicode="&#x201c;" glyph-name="quotedblleft" horiz-adv-x="714" d="M689 1462Q668 1385 648 1296T610 1119T583 961H406L391 983Q409 1056 437 1139T499 1305T567 1462H689ZM321 1462Q300 1385 280 1296T242 1119T215 961H39L27 983Q45 1056 72 1139T133
1305T200 1462H321Z" />
<glyph unicode="&#x201d;" glyph-name="quotedblright" horiz-adv-x="714" d="M673 1462L688 1440Q670 1366 642 1283T581 1117T515 961H390Q411 1037 432 1126T470 1303T497 1462H673ZM305 1462L319 1440Q302 1366 274 1283T212 1117T146 961H26Q41 1018 56 1083T85
1215T110 1345T129 1462H305Z" />
<glyph unicode="&#x201e;" glyph-name="quotedblbase" horiz-adv-x="837" d="M712 237L727 215Q709 141 681 58T620 -108T554 -264H429Q450 -188 471 -99T509 78T536 237H712ZM344 237L358 215Q341 141 313 58T251 -108T185 -264H65Q80 -207 95 -142T124 -10T149
120T168 237H344Z" />
<glyph unicode="&#x2022;" glyph-name="bullet" horiz-adv-x="770" d="M171 748Q171 835 199 887T275 964T385 988Q446 988 494 964T571 887T599 748Q599 664 571 611T495 532T385 507Q324 507 276 532T199 610T171 748Z" />
<glyph unicode="&#x2039;" glyph-name="guilsinglleft" horiz-adv-x="615" d="M79 556L419 965L538 897L251 544L538 191L419 122L79 529V556Z" />
<glyph unicode="&#x203a;" glyph-name="guilsinglright" horiz-adv-x="615" d="M194 965L536 557V530L194 122L77 191L363 545L77 897L194 965Z" />
</font>
</defs>
</svg>
